王者影视论坛

 找回密码
 立即注册
查看: 7064|回复: 8

[科幻] [高清合集] 星球大战六部全 Star.Wars.I-VI.BluRay.720p.x264.AC3-WOFE...

[复制链接]

签到天数: 9 天

[LV.3]偶尔看看II

1802

主题

2381

帖子

1万

积分

管理员

Rank: 9Rank: 9Rank: 9

积分
17431
影币
14390
RMB
0
阅读权限
200
注册时间
2015-1-1
在线时间
1275 小时
最后登录
2017-1-18

最佳新人活跃会员热心会员推广达人宣传达人灌水之王突出贡献优秀版主荣誉管理论坛元老

QQ
发表于 2015-2-7 10:10:01 | 显示全部楼层 |阅读模式

您尚未登录,请登陆后浏览更精彩内容!

您需要 登录 才可以下载或查看,没有帐号?立即注册

x

◎译  名 星球大战前传一:魅影危机/星战前传之魅影危机/星际大战首部曲:威胁潜伏/星球大战前传:幽灵的威胁
◎片  名 Star Wars: Episode I: The Phantom Menace
◎年  代 1999
◎国  家 美国
◎类  别 动作/奇幻/科幻/冒险
◎语  言 英语/国语
◎字  幕 中英字幕/中文字幕/英中字幕/英文字幕
◎IMDB评分 6.4/10 (220,043 votes)
◎IMDB链接 http://www.imdb.com/title/tt0120915/
◎文件格式 X264 + AC3
◎视频尺寸 1280 x 720
◎文件大小 1CD
◎片  长 133 min
◎导  演 乔治·卢卡斯 George Lucas
◎编  剧 乔治·卢卡斯 George Lucas
◎演  员 娜塔莉·波特曼 Natalie Portman  ....Queen Padmé Naberrie Amidala
      伊万·麦克格雷格 Ewan McGregor  ....Obi-Wan Kenobi
      杰克·洛伊德 Jake Lloyd  ....Anakin Skywalker
      连姆·尼森 Liam Neeson  ....Qui-Gon Jinn
      塞缪尔·杰克逊 Samuel L. Jackson  ....Mace Windu
      佩尼拉·奥盖斯特 Pernilla August  ....Shmi Skywalker
      弗兰克·奥兹 Frank Oz  ....Yoda (voice)
      雷·帕克 Ray Park  ....Darth Maul
      阿梅德·贝斯特 Ahmed Best  ....Jar Jar Binks (voice)
      特伦斯·斯坦普 Terence Stamp  ....Supreme Chancellor Valorum
      拉尔夫·布朗 Ralph Brown  ....Ric Olié
      多米尼克·威斯特 Dominic West  ....Palace guard
      索菲亚·科波拉 Sofia Coppola  ....Saché
      凯拉·奈特莉 Keira Knightley  ....Sabé (queen's decoy)
      琳赛·邓肯 Lindsay Duncan  ....TC-14 (voice)
      艾米·爱伦 Amy Allen  ....Twi'Lek Senatorial Aide (DVD deleted scenes) (uncredited)
      本·贝尔特 Ben Burtt  ....Naboo Courier (uncredited)
      沃维克·戴维斯 Warwick Davis  ....Wald/Pod race spectator/Mos Espa Citizen (uncredited)
      伊恩·麦克迪阿梅德 Ian McDiarmid  ....Senator Palpatine
      安东尼·丹尼尔斯 Anthony Daniels  ....C-3PO
      肯尼·贝克 Kenny Baker  ....R2-D2
      布耐恩·布莱塞得 Brian Blessed  ....Boss Nass (voice)
      彼得·塞拉菲诺威茨 Peter Serafinowicz  ....Darth Maul (voice)

◎剧  情

  很久以前,在遥远的银河系,银河共和国国会正在为星际贸易通道上的税收问题进行着激烈的争论。贪婪的贸易联盟派出无敌战舰,企图封锁一切运往纳布星的货物,并绑架了纳布星的女王阿米达拉,逼她签署出卖纳布星利益的协议。
  在安尼肯和刚格人喳喳的帮助下,纳布星战胜了贸易联盟的机器人部队和西斯武士,但奎刚却被凶猛残暴的莫罗夺去了生命。奥比温遵照奎刚的遗愿,收安尼肯为徒。但他怎么也想不到自己的徒弟长大后竟成为了邪恶的黑武士……
  一行人在寻求修复船舰零件时,赫然发现一位具有强大原力的天行者阿纳金亦在此星球上,阿纳金随后便跟著绝地武士们前往银河共和国首府哥路斯勘星,而另一方面阿美德娜皇后在试图与共和国协议援军遭拒随后,只好集结剩馀的部队与绝地武士们正式向黑暗领主宣战,展开一场星际大反击。

  故事以金和克诺比受到敌人袭击开始。在逃亡之际,他们遇到了阿米达拉皇后等人。在逃亡过程中,他们的飞船发生了故障被迫降落在纳波星球附近的塔托尼星球。在飞船维修期间,他们认识了在星球上当奴隶的阿纳金及其母亲施米。而令金和克诺比感到惊讶的是阿纳金居然拥有非常强大的力量,因此他们俩决定帮助阿纳金重获自由,并将他训练成为一位绝地武士。但当他们正要离开塔托尼星球时,却遇到了邪恶的达斯马尔……

  在银河共和国国会为星际贸易进行的争论中,贪婪的贸易联盟派出无敌战舰,企图封锁一切运往纳布星的货物,并绑架了纳布星的女王阿米达拉,逼她签署出卖纳布星利益的协议。负责维护银河系星座之间正义与和平的绝地武士奎刚及奥比温受命去排解双方的纠纷。由于飞船出现故障,他们降落在塔土尼星,结识了聪明善良的男孩阿纳金。奎刚非常喜爱这个聪明勇敢的少年,便将其带出塔土尼星,竭力说服长老会同意自己训练他。在阿纳金等人的帮助下,纳布星战胜了贸易联盟的机器人部队和西斯武士,但奎刚却被凶猛残暴的莫罗夺去了生命。奥比温遵照奎刚的遗愿,收阿纳金为徒。
Star.Wars.Episode.1.The.Phantom.Menace.1999.BluRay.720p.x264.AC3-WOFEI.mkv
      Format : Matroska
      File size : 3.10 GiB
      Duration : 2h 16mn
      Overall bit rate : 3 252 Kbps
      Encoded date : UTC 2011-09-08 01:57:13
      Writing application : mkvmerge v3.4.0 ('Rapunzel') 编译于 May 15 2010 09:38:20
      Writing library : libebml v0.8.0 + libmatroska v0.9.0
   Video #1
      ID : 1
      Format : AVC
      Format/Info : Advanced Video Codec
      Format profile : High@L4.1
      Format settings, CABAC : Yes
      Format settings, ReFrames : 4 frames
      Muxing mode : Container profile=Unknown@4.1
      Codec ID : V_MPEG4/ISO/AVC
      Duration : 2h 16mn
      Bit rate : 2 356 Kbps
      Nominal bit rate : 2 424 Kbps
      Width : 1 280 pixels
      Height : 720 pixels
      Display aspect ratio : 16:9
      Frame rate : 23.976 fps
      Resolution : 8 bits
      Colorimetry : 4:2:0
      Scan type : Progressive
      Bits/(Pixel*Frame) : 0.107
      Stream size : 2.24 GiB (72%)
      Writing library : x264 core 116 r2074 2641b9e
      Encoding settings : cabac=1 / ref=3 / deblock=1:0:0 / analyse=0x3:0x113 / me=hex / subme=7 / psy=1 / psy_rd=1.00:0.00 / mixed_ref=1 / me_range=16 / chroma_me=1 / trellis=1 / 8x8dct=1 / cqm=0 / deadzone=21,11 / fast_pskip=1 / chroma_qp_offset=-2 / threads=6 / sliced_threads=0 / nr=0 / decimate=1 / interlaced=0 / bluray_compat=0 / constrained_intra=0 / bframes=3 / b_pyramid=2 / b_adapt=1 / b_bias=0 / direct=1 / weightb=1 / open_gop=0 / weightp=2 / keyint=250 / keyint_min=23 / scenecut=40 / intra_refresh=0 / rc_lookahead=40 / rc=2pass / mbtree=1 / bitrate=2424 / ratetol=1.0 / qcomp=0.60 / qpmin=0 / qpmax=69 / qpstep=4 / cplxblur=20.0 / qblur=0.5 / vbv_maxrate=50000 / vbv_bufsize=50000 / nal_hrd=none / ip_ratio=1.40 / aq=1:1.00
      Language : English
   Audio #2
      ID : 2
      Format : AC-3
      Format/Info : Audio Coding 3
      Codec ID : A_AC3
      Duration : 2h 16mn
      Bit rate mode : Constant
      Bit rate : 448 Kbps
      Channel(s) : 6 channels
      Channel positions : Front: L C R, Surround: L R, LFE
      Sampling rate : 48.0 KHz
      Stream size : 437 MiB (14%)
      Title : 英语
   Audio #3
      ID : 3
      Format : AC-3
      Format/Info : Audio Coding 3
      Codec ID : A_AC3
      Duration : 2h 16mn
      Bit rate mode : Constant
      Bit rate : 384 Kbps
      Channel(s) : 6 channels
      Channel positions : Front: L C R, Surround: L R, LFE
      Sampling rate : 48.0 KHz
      Stream size : 375 MiB (12%)
      Title : 国语
   Text #4
      ID : 4
      Format : SSA
      Codec ID : S_TEXT/SSA
      Codec ID/Info : Sub Station Alpha
      Title : 中英
   Text #5
      ID : 5
      Format : SSA
      Codec ID : S_TEXT/SSA
      Codec ID/Info : Sub Station Alpha
      Title : 英中
   Text #6
      ID : 6
      Format : UTF-8
      Codec ID : S_TEXT/UTF8
      Codec ID/Info : UTF-8 Plain Text
      Title : 中文
   Text #7
      ID : 7
      Format : UTF-8
      Codec ID : S_TEXT/UTF8
      Codec ID/Info : UTF-8 Plain Text
      Title : 英文







◎译  名 星球大战前传二:克隆人的进攻/星战前传之克隆人的进攻/星际大战二部曲:复制人全面进攻/星球大战前传II:复制人侵略
◎片  名 Star Wars Episode II: Attack of the Clones
◎年  代 2002
◎国  家 美国
◎类  别 爱情/动作/奇幻/科幻/冒险/悬疑
◎语  言 英语/国语/粤语
◎字  幕 中英字幕/中文字幕/英中字幕/英文字幕
◎IMDB评分 6.8/10 (182,615 votes)
◎IMDB链接 http://www.imdb.com/title/tt0121765/
◎文件格式 X264 + AC3
◎视频尺寸 1280 x 720
◎文件大小 1CD
◎片  长 143 min
◎导  演 乔治·卢卡斯 George Lucas
◎编  剧 乔治·卢卡斯 George Lucas
      乔纳森·黑尔斯   Jonathan Hales
◎演  员 伊万·麦克格雷格 Ewan McGregor  ....Obi-Wan Kenobi
      娜塔莉·波特曼 Natalie Portman  ....Senator Padmé Amidala
      海登·克里斯滕森 Hayden Christensen  ....Anakin Skywalker
      克里斯托弗·李 Christopher Lee  ....Count Dooku/Darth Tyranus
      塞缪尔·杰克逊 Samuel L. Jackson  ....Mace Windu
      弗兰克·奥兹 Frank Oz  ....Yoda (voice)
      佩尼拉·奥盖斯特 Pernilla August  ....Shmi Skywalker-Lars
      杰克·汤普森 Jack Thompson  ....Cliegg Lars
      阿梅德·贝斯特 Ahmed Best  ....Jar Jar Binks (voice)
      萝丝·拜恩 Rose Byrne  ....Dormé
      乔尔·埃哲顿 Joel Edgerton  ....Owen Lars
      丽纳·欧文 Rena Owen  ....Ministerial Assistant Taun We (voice)
      艾米·爱伦 Amy Allen  ....Aayla Secura (uncredited)
      马尔顿·索克斯 Marton Csokas  ....Geonosian Archduke Poggle the Lesser (uncredited)
      连姆·尼森 Liam Neeson  ....Qui-Gon Jinn (voice) (uncredited) (archive footage)
      黄少祺 Eric Wong  ....Temple Jedi (uncredited)
      伊恩·麦克迪阿梅德 Ian McDiarmid  ....Supreme Chancellor Palpatine/Darth Sidious
      特穆拉·莫里森 Temuera Morrison  ....Jango Fett
      Daniel Logan  ....Boba Fett
      吉米·斯密茨 Jimmy Smits  ....Senator Bail Organa
      Leeanna Walsman  ....Zam Wesell
      奥利弗·福德·戴维斯 Oliver Ford Davies  ....Govenor Sio Bibble
      Ron Falk  ....Dexter Jettster (voice) (as Ronald Falk)
      Jay Laga'aia  ....Capt. Typho
      Andrew Secombe  ....Watto (voice) (as Andy Secombe)
      安东尼·丹尼尔斯 Anthony Daniels  ....C-3PO
      Silas Carson  ....Ki-Adi-Mundi/Viceroy Nute Gunray
      阿耶莎·哈克 Ayesha Dharker  ....Queen Jamillia
      肯尼·贝克 Kenny Baker  ....R2-D2

【剧  情】

  在《星战前传:魅影危机》后的第10年,此时银河系正处于一片混乱和动荡之中。在变节的杜库伯爵(克里斯托弗·李)策动下,有几千个太阳星系决定一起脱离银河系共和国独立,然而银河系共和国还不具备足够的军事实力来镇压这些分离主义份子,在武力不足的状况下,银河系共和国联合议会决定组成临时军队攻打分离主义份子,而其中的一名议员,也就是纳波星球前任女王阿米达拉(娜塔丽·波特曼)却力排众意,极力反对这种以暴力对抗暴力的策略,因为这会引发银河系内大规模的争斗和屠戮,但并不是每个人都同意阿米达拉维护和平的决心,于是不断有人密谋刺杀阿米达拉以达到自己不可告人的目的。
  此时已经升任为杰迪武士老师的奥比王(伊万·麦格雷戈)派出他的徒弟天行者阿纳金(海登·克里斯滕森),负责保护阿米达拉的安全。在《星战前传》里还是十来岁小男孩的阿纳金,此时已成长成英俊挺拔、身手不凡的少年。在护送阿米达拉前往安全避难所的路途中,一种青涩而微妙的感情开始在两个年轻人心里滋生,这种感情无疑将会动摇阿米达拉一向以天下为己任的处事态度,也将会挑战阿纳金作为杰迪武士必须恪遵的“无怒、无憎、无情”的不二誓言……
  与此同时,为了彻查星际冲突的根源,奥比王冒着生命危险深入到遥远的海底世界,他发现,这个一向被认为是蛮荒之地的区域已被人秘密开发,无数的克隆人试验正在紧锣密鼓地实行,这一切甚至可能影响银河共和国的未来命运,星际战争已经箭在弦上,一触即发……


      Format : Matroska
      File size : 3.56 GiB
      Duration : 2h 22mn
      Overall bit rate : 3 581 Kbps
      Encoded date : UTC 2011-09-08 02:38:10
      Writing application : mkvmerge v3.4.0 ('Rapunzel') 编译于 May 15 2010 09:38:20
      Writing library : libebml v0.8.0 + libmatroska v0.9.0
   Video #1
      ID : 1
      Format : AVC
      Format/Info : Advanced Video Codec
      Format profile : High@L4.1
      Format settings, CABAC : Yes
      Format settings, ReFrames : 4 frames
      Muxing mode : Container profile=Unknown@4.1
      Codec ID : V_MPEG4/ISO/AVC
      Duration : 2h 22mn
      Bit rate : 2 229 Kbps
      Nominal bit rate : 2 298 Kbps
      Width : 1 280 pixels
      Height : 720 pixels
      Display aspect ratio : 16:9
      Frame rate : 23.976 fps
      Resolution : 8 bits
      Colorimetry : 4:2:0
      Scan type : Progressive
      Bits/(Pixel*Frame) : 0.101
      Stream size : 2.22 GiB (62%)
      Writing library : x264 core 116 r2074 2641b9e
      Encoding settings : cabac=1 / ref=3 / deblock=1:0:0 / analyse=0x3:0x113 / me=hex / subme=7 / psy=1 / psy_rd=1.00:0.00 / mixed_ref=1 / me_range=16 / chroma_me=1 / trellis=1 / 8x8dct=1 / cqm=0 / deadzone=21,11 / fast_pskip=1 / chroma_qp_offset=-2 / threads=6 / sliced_threads=0 / nr=0 / decimate=1 / interlaced=0 / bluray_compat=0 / constrained_intra=0 / bframes=3 / b_pyramid=2 / b_adapt=1 / b_bias=0 / direct=1 / weightb=1 / open_gop=0 / weightp=2 / keyint=250 / keyint_min=23 / scenecut=40 / intra_refresh=0 / rc_lookahead=40 / rc=2pass / mbtree=1 / bitrate=2298 / ratetol=1.0 / qcomp=0.60 / qpmin=0 / qpmax=69 / qpstep=4 / cplxblur=20.0 / qblur=0.5 / vbv_maxrate=50000 / vbv_bufsize=50000 / nal_hrd=none / ip_ratio=1.40 / aq=1:1.00
      Language : English
   Audio #2
      ID : 2
      Format : AC-3
      Format/Info : Audio Coding 3
      Codec ID : A_AC3
      Duration : 2h 22mn
      Bit rate mode : Constant
      Bit rate : 448 Kbps
      Channel(s) : 6 channels
      Channel positions : Front: L C R, Surround: L R, LFE
      Sampling rate : 48.0 KHz
      Stream size : 457 MiB (13%)
      Title : 英语
   Audio #3
      ID : 3
      Format : AC-3
      Format/Info : Audio Coding 3
      Codec ID : A_AC3
      Duration : 2h 22mn
      Bit rate mode : Constant
      Bit rate : 384 Kbps
      Channel(s) : 6 channels
      Channel positions : Front: L C R, Surround: L R, LFE
      Sampling rate : 48.0 KHz
      Stream size : 391 MiB (11%)
      Title : 国语
   Audio #4
      ID : 4
      Format : AC-3
      Format/Info : Audio Coding 3
      Codec ID : A_AC3
      Duration : 2h 22mn
      Bit rate mode : Constant
      Bit rate : 448 Kbps
      Channel(s) : 6 channels
      Channel positions : Front: L C R, Surround: L R, LFE
      Sampling rate : 48.0 KHz
      Stream size : 457 MiB (13%)
      Title : 粤语
   Text #5
      ID : 5
      Format : SSA
      Codec ID : S_TEXT/SSA
      Codec ID/Info : Sub Station Alpha
      Title : 中英
   Text #6
      ID : 6
      Format : SSA
      Codec ID : S_TEXT/SSA
      Codec ID/Info : Sub Station Alpha
      Title : 英中
   Text #7
      ID : 7
      Format : UTF-8
      Codec ID : S_TEXT/UTF8
      Codec ID/Info : UTF-8 Plain Text
      Title : 中文
   Text #8
      ID : 8
      Format : UTF-8
      Codec ID : S_TEXT/UTF8
      Codec ID/Info : UTF-8 Plain Text
      Title : 英文








◎译  名 星球大战前传III:西斯的复仇/星战前传之西斯的复仇/星球大战前传III:黑帝君临/星球大战前传III:西斯的复仇/星际大战三部曲:西斯大帝的复仇
◎片  名 Star Wars Episode III: Revenge of the Sith
◎年  代 2005
◎国  家 美国
◎类  别 动作/奇幻/科幻/冒险
◎语  言 英语/国语/粤语
◎字  幕 中英字幕/中文字幕/英中字幕/英文字幕
◎IMDB评分 7.8/10 (207,801 votes)
◎IMDB链接 http://www.imdb.com/title/tt0121766/
◎文件格式 X264 + AC3
◎视频尺寸 1280 x 720
◎文件大小 1CD
◎片  长 140 min
◎导  演 乔治·卢卡斯 George Lucas
◎编  剧 乔治·卢卡斯 George Lucas
◎演  员 伊万·麦克格雷格 Ewan McGregor  ....Obi-Wan Kenobi
      娜塔莉·波特曼 Natalie Portman  ....Padmé
      海登·克里斯滕森 Hayden Christensen  ....Anakin Skywalker
      塞缪尔·杰克逊 Samuel L. Jackson  ....Mace Windu
      弗兰克·奥兹 Frank Oz  ....Yoda (voice)
      克里斯托弗·李 Christopher Lee  ....Count Dooku
      凯莎·卡斯特-休伊斯 Keisha Castle-Hughes  ....Queen of Naboo
      乔尔·埃哲顿 Joel Edgerton  ....Owen Lars
      金妮韦芙·奥蕾利 Genevieve O'Reilly  ....Mon Mothma
      丽纳·欧文 Rena Owen  ....Nee Alavar
      乔治·卢卡斯 George Lucas  ....Baron Papanoida (uncredited)
      保罗·尼科尔森 Paul Nicholson  ....Senator Po Nudo (uncredited)
      伊恩·麦克迪阿梅德 Ian McDiarmid  ....Supreme Chancellor Palpatine
      吉米·斯密茨 Jimmy Smits  ....Senator Bail Organa
      安东尼·丹尼尔斯 Anthony Daniels  ....C-3PO
      Silas Carson  ....Ki-Adi-Mundi & Nute Gunray
      Jay Laga'aia  ....Captain Typho
      布鲁斯·斯宾斯 Bruce Spence  ....Tion Medon
      韦恩·佩格拉姆 Wayne Pygram  ....Governor Tarkin
      特穆拉·莫里森 Temuera Morrison  ....Commander Cody
      David Bowers  ....Mas Amedda
      Oliver Ford Davies  ....Sio Bibble
      阿梅德·贝斯特 Ahmed Best  ....Jar Jar Binks
      Rohan Nichol  ....Captain Antilles
      杰米·布洛奇 Jeremy Bulloch  ....Captain Colton
      Tyger  ....Terr Taneel
      肯尼·贝克 Kenny Baker  ....R2-D2
      Matt Sloan  ....Plo Koon
      彼特·梅靥 Peter Mayhew  ....Chewbacca
      Rebecca Jackson Mendoza  ....Queen of Alderaan
      邦妮·派西 Bonnie Piesse  ....Beru
      Jett Lucas  ....Zett Jukassa
      Tux Akindoyeni  ....Agen Kolar
      Matt Rowan  ....Senator Orn Free Taa
      Kenji Oates  ....Saesee Tiin
      艾米·爱伦 Amy Allen  ....Aayla Secura
      Bodie Taylor  ....Clone Trooper (as Bodie 'Tihoi' Taylor)
      Graeme Blundell  ....Ruwee Naberrie
      Trisha Noble  ....Jobal Naberrie
      克劳蒂娅·卡万 Claudia Karvan  ....Sola Naberrie
      Keira Wingate  ....Ryoo Naberrie
      Hayley Mooy  ....Pooja Naberrie
      Sandi Finlay  ....Sly Moore
      Jenna Green  ....Chi Eekway
      Warren Owens  ....Fang Zar
      Kee Chan  ....Malé-Dee
      Christopher Kirby  ....Giddean Danu
      Matthew Wood  ....General Grievous (voice)
      Kristy Wright  ....Moteé
      Coinneach Alexander  ....Whie
      Mousy McCallum  ....Bene
      Michael Kingma  ....Wookiee (Tarfful)
      Axel Dench  ....Wookiee
      Steven Foy  ....Wookiee
      Julian Khazzouh  ....Wookiee
      James Rowland  ....Wookiee
      David Stiff  ....Wookiee
      Robert Cope  ....Wookiee

【剧  情】

  经过三年残酷的战争,Clone Wars己差不多接近尾声,绝地议会派遣Obi-Wan Kenobi把致命的分离份子机械军队首令回来受审。同时,在Coruscant,Chancellor Palpatine的势力日渐壮大,他已把饱受战火洗礼的共和国转形至帝国。他的密友天行者阿纳金(Anakin Skywalker)已显露了他的真正力量,他的秘密已诱惑他走到崇尚武力的黑暗面……

克隆人战争已经进行了三年。现在,在共和国的首都上空,共和国的歼星舰和分裂主义联盟的战舰正进行着一场壮观的太空大战!远处贸易联盟的旗舰上,格里弗斯将军、杜库伯爵和他们的俘虏帕尔帕廷议长正准备离开。
  欧比旺和阿纳金分别驾着共和国的战机去营救议长。途中遭到联盟战斗机器人的突袭,欧比旺战机上的导航机器人R4被打掉了脑袋,阿纳金战机上的R2-D2也被打坏,多亏阿纳金救了它。最终,两人降落在贸易联盟的飞船上,与格里弗斯将军的机器人护卫一场大战。
  大门打开,两人看到帕尔帕廷坐在椅子上,双手被缚。正要解救议长,两人忽然感觉到一股强大的黑暗原力--伯爵带着两个战斗机器人走了进来。欧比旺和阿纳金亮出光剑,一红两兰三把光剑激烈地战在了一起。欧比旺被杜库的原力抛起撞到墙上,昏迷了过去。阿纳金面对这个让他三年前失去右手的西斯,心底燃烧起愤怒的火焰。在击飞了杜库的光剑后,他砍掉了杜库的双手。帕尔帕廷命令阿纳金干掉了杜库。

在这次绑架事件后,帕尔帕廷要求议会给他更大的权力。他暗示,杜库伯爵的行为说明杰迪武士对这场战争负有不可推卸的责任,并利用他的权威为阿纳金争取到了参与杰迪长老会的权力。在会议中,阿纳金和帕德梅不时地眼光相交,已经成为杰迪大师的欧比旺注意到了,但什么也没说。
  极力诱导阿纳金的黑暗力量,而受到延续生命蛊惑的阿纳金也开始了解到帕尔帕廷的专制主义。他对帕尔帕廷的忠诚导致与帕德梅之间关系阴影的产生。
  欧比旺和克隆军团司令官科迪一同率领部队进攻格里弗斯将军。欧比旺在关键时刻用原力从有着四只机械臂的格里弗斯的枪套中夺取了激光枪,干掉了将军。由于格里弗斯将军是全银河系分裂主义联盟机器人军队的主脑,他一死,所有的机器军团都瘫痪了。历时三年的“克隆大战”终于结束!

克隆人战争已经进行了三年。绝地武士的希望之星,年仅20岁的阿纳金·天行者掌握了超凡的原力和飞行才能,然而令他自己都难以相信的是,在这个平衡渐失的世界中,他所具有的巨大潜力却使他逐渐被黑暗的势力所诱惑,并最终堕落成为邪恶的黑武士维达。 另外星战终结篇中银河系最坏的家伙——星际联盟最高长官帕尔帕丁议长将公开展示他最后的阴谋——他企图操纵整个银河星际联盟,然后成为帝国的总盟主。更加可怕的是,他最后还下令将所有维护星际和平的杰迪武士消灭殆尽。而在影片的最后将出现师徒对决的精彩场面——转变成黑武士维达的阿纳金·天行者与自己的恩师奥比旺以光剑格斗的方式决一死战……


      Format : Matroska
      File size : 3.55 GiB
      Duration : 2h 20mn
      Overall bit rate : 3 626 Kbps
      Encoded date : UTC 2011-09-08 03:27:28
      Writing application : mkvmerge v3.4.0 ('Rapunzel') 编译于 May 15 2010 09:38:20
      Writing library : libebml v0.8.0 + libmatroska v0.9.0
   Video #1
      ID : 1
      Format : AVC
      Format/Info : Advanced Video Codec
      Format profile : High@L4.1
      Format settings, CABAC : Yes
      Format settings, ReFrames : 4 frames
      Muxing mode : Container profile=Unknown@4.1
      Codec ID : V_MPEG4/ISO/AVC
      Duration : 2h 19mn
      Bit rate : 2 274 Kbps
      Nominal bit rate : 2 344 Kbps
      Width : 1 280 pixels
      Height : 720 pixels
      Display aspect ratio : 16:9
      Frame rate : 23.976 fps
      Resolution : 8 bits
      Colorimetry : 4:2:0
      Scan type : Progressive
      Bits/(Pixel*Frame) : 0.103
      Stream size : 2.22 GiB (63%)
      Writing library : x264 core 116 r2074 2641b9e
      Encoding settings : cabac=1 / ref=3 / deblock=1:0:0 / analyse=0x3:0x113 / me=hex / subme=7 / psy=1 / psy_rd=1.00:0.00 / mixed_ref=1 / me_range=16 / chroma_me=1 / trellis=1 / 8x8dct=1 / cqm=0 / deadzone=21,11 / fast_pskip=1 / chroma_qp_offset=-2 / threads=6 / sliced_threads=0 / nr=0 / decimate=1 / interlaced=0 / bluray_compat=0 / constrained_intra=0 / bframes=3 / b_pyramid=2 / b_adapt=1 / b_bias=0 / direct=1 / weightb=1 / open_gop=0 / weightp=2 / keyint=250 / keyint_min=23 / scenecut=40 / intra_refresh=0 / rc_lookahead=40 / rc=2pass / mbtree=1 / bitrate=2344 / ratetol=1.0 / qcomp=0.60 / qpmin=0 / qpmax=69 / qpstep=4 / cplxblur=20.0 / qblur=0.5 / vbv_maxrate=50000 / vbv_bufsize=50000 / nal_hrd=none / ip_ratio=1.40 / aq=1:1.00
      Language : English
   Audio #2
      ID : 2
      Format : AC-3
      Format/Info : Audio Coding 3
      Codec ID : A_AC3
      Duration : 2h 20mn
      Bit rate mode : Constant
      Bit rate : 448 Kbps
      Channel(s) : 6 channels
      Channel positions : Front: L C R, Surround: L R, LFE
      Sampling rate : 48.0 KHz
      Stream size : 449 MiB (12%)
      Title : 英语
   Audio #3
      ID : 3
      Format : AC-3
      Format/Info : Audio Coding 3
      Codec ID : A_AC3
      Duration : 2h 20mn
      Bit rate mode : Constant
      Bit rate : 384 Kbps
      Channel(s) : 6 channels
      Channel positions : Front: L C R, Surround: L R, LFE
      Sampling rate : 48.0 KHz
      Stream size : 385 MiB (11%)
      Title : 国语
   Audio #4
      ID : 4
      Format : AC-3
      Format/Info : Audio Coding 3
      Codec ID : A_AC3
      Duration : 2h 20mn
      Bit rate mode : Constant
      Bit rate : 448 Kbps
      Channel(s) : 6 channels
      Channel positions : Front: L C R, Surround: L R, LFE
      Sampling rate : 48.0 KHz
      Stream size : 449 MiB (12%)
      Title : 粤语
   Text #5
      ID : 5
      Format : SSA
      Codec ID : S_TEXT/SSA
      Codec ID/Info : Sub Station Alpha
      Title : 中英
   Text #6
      ID : 6
      Format : SSA
      Codec ID : S_TEXT/SSA
      Codec ID/Info : Sub Station Alpha
      Title : 英中
   Text #7
      ID : 7
      Format : UTF-8
      Codec ID : S_TEXT/UTF8
      Codec ID/Info : UTF-8 Plain Text
      Title : 中文
   Text #8
      ID : 8
      Format : UTF-8
      Codec ID : S_TEXT/UTF8
      Codec ID/Info : UTF-8 Plain Text
      Title : 英文





◎中文 名 星球大战之新希望
◎片  名 Star Wars IV A New Hope
◎年  代 1977
◎国  家 美国
◎类  别 动作/冒险/幻想/科幻
◎语  言 英语/国语
◎字  幕 中英字幕/中文字幕/英中字幕/英文字幕
◎IMDB评分 8.8/10 (174,655 votes)
◎IMDB链接 http://www.imdb.com/title/tt0076759
◎文件格式 X264 + AC3
◎视频尺寸 1280 x 720                     
◎文件大小 1CD
◎片  长 121 Min
◎导  演 乔治·卢卡斯 George Lucas
◎主  演 凯瑞·费雪 Carrie Fisher ..... Princess Leia Organa
      乔·庄斯顿 Joe Johnston ..... Death Star trooper (uncredited)
      哈里森·福特 Harrison Ford ..... Han Solo
      马克·哈米尔 Mark Hamill ..... Luke Skywalker
      亚利克·基尼斯 Alec Guinness ..... Ben Obi-Wan Kenobi
      Jeremy Sinden ..... Gold Two
      Eddie Byme ..... General Willard
      George Roubicek ..... Cmdr. Praji (Imperial Officer #2 on rebel ship) (uncredited)
      Scott Beach ..... Stormtrooper (voice) (uncredited)
      Phil Brown ..... Uncle Owen



◎简  介 

银河帝国的各星系居民饱受暴政之苦,达度尼星球的居民起而反抗。莉雅公主潜入帝国基地,偷走了足以摧毁暴君的秘密武器——死星中心结构资料,不料公主被捕,但她以把数据输入机器人R2D2的计算机中,机器人R2D2和3PO逃亡到一个遥远的星球,这个星球的年轻人卢克发现了R2D2中的求救信息,卢克找到在反抗帝国的战斗中仅存的绝地骑士奥比温,奥比温要求卢克和他一起去救公主,他们一行在梭罗的帮助下,营救出了公主,并一同对帝国进行了毁灭性的打击。

外贸联盟─莱姆联邦正集结战斗船舰,准备前往攻击一处名为NABOO星球上的席德市,另一方面,主张和平共存的共和国在得知此项消息後,即派遣两位使者殴比旺.肯诺比及魁金刚担任和平使者前往战斗船舰进行游说,确不知此战火乃是由黑暗领主所主导,而莱姆联邦已与之签下一纸秘密协定,即是攻占NABOO星首都,并刺杀该首都统治者阿美德娜皇后。战事一触即发……

在银河系中发生了叛乱。银河共和国被推翻了。以大莫金为最高统治者的银河帝国开始统治银河系里的所有的行星。银河帝国还建立了一个威力无比的“死星”,用来镇压反抗者。奥尔德兰行星的丽亚公主准备联系其它行星的人们共同起义,不料秘密泄露,在沙漠行星附近被帝国军俘虏。公主的机器人R2和C3P0来到了沙漠行星。在青年卢克的帮助下,它们找到了吉迪族的老武士克诺比向他求助。而卢克为了给被帝国军杀害的亲人报仇,也决心和克诺比一起行动。卢克和克诺比一起搭乘梭罗船长运货飞船来到了已被死星毁灭的奥尔德兰星球所在的星域,却被“死星”所俘虏。在机器人的帮助下,卢克等人和“死星”上的黑勋爵展开了殊死的较量。他们终于用巧计救出了丽亚公主。但克诺比却在与黑勋爵的光剑决斗中不幸牺牲了。卢克保护着丽亚公主来到了反抗军的基地,并参加了反抗军对死星的总攻击。在克诺比所教给他的“力”的帮助下,卢克终于击中了死星的弱点,摧毁了死星。反抗军取得了巨大的胜利。卢克等人和丽亚公主一起参加了盛大的庆典。经过战斗的洗礼,卢克已经成为一名出色的自由战士。

银河共和国被发生在银河系中的叛乱推翻,以大莫金为最高统治者的银河帝国开始统治银河系。银河帝国建立了一个威力无比的“死星”以镇压反抗者,银河帝国的各星系居民饱受暴政之苦。奥尔德兰行星的丽亚公主潜入帝国基地,偷走了足以摧毁暴君的秘密武器——“死星”中心结构资料,但却被发现行径,在沙漠行星附近被帝国军俘虏。公主将数据输入机器人R2的计算机中。公主的机器人R2和C3P0逃到了沙漠行星,在年轻人卢克的帮助下找到了吉迪族的老武士、反抗帝国的战斗中仅存的绝地骑士克诺比,并向他求助。为了给被帝国军杀害的亲人报仇,卢克决心和克诺比一起行动。他们搭乘梭罗船长的运货飞船来到已被死星毁灭的奥尔德兰星球所在的星域,却被“死星”俘虏。在和“死星”上的黑勋爵展开殊死较量后,卢克等人终于将丽亚公主救出,但克诺比却死于黑勋爵的光剑下。卢克和丽亚公主来到反抗军基地,并参加了反抗军对死星的总攻。在探明“死星”的弱点后,卢克终于摧毁了死星,反抗军取得了胜利。


      Format : Matroska
      File size : 2.90 GiB
      Duration : 2h 4mn
      Overall bit rate : 3 331 Kbps
      Encoded date : UTC 2011-09-08 05:37:14
      Writing application : mkvmerge v3.4.0 ('Rapunzel') 编译于 May 15 2010 09:38:20
      Writing library : libebml v0.8.0 + libmatroska v0.9.0
   Video #1
      ID : 1
      Format : AVC
      Format/Info : Advanced Video Codec
      Format profile : High@L4.1
      Format settings, CABAC : Yes
      Format settings, ReFrames : 4 frames
      Muxing mode : Container profile=Unknown@4.1
      Codec ID : V_MPEG4/ISO/AVC
      Duration : 2h 4mn
      Bit rate : 2 624 Kbps
      Nominal bit rate : 2 688 Kbps
      Width : 1 280 pixels
      Height : 720 pixels
      Display aspect ratio : 16:9
      Frame rate : 23.976 fps
      Resolution : 8 bits
      Colorimetry : 4:2:0
      Scan type : Progressive
      Bits/(Pixel*Frame) : 0.119
      Stream size : 2.28 GiB (79%)
      Writing library : x264 core 115 r1995 c1e60b9
      Encoding settings : cabac=1 / ref=3 / deblock=1:0:0 / analyse=0x3:0x113 / me=hex / subme=7 / psy=1 / psy_rd=1.00:0.00 / mixed_ref=1 / me_range=16 / chroma_me=1 / trellis=1 / 8x8dct=1 / cqm=0 / deadzone=21,11 / fast_pskip=1 / chroma_qp_offset=-2 / threads=6 / sliced_threads=0 / nr=0 / decimate=1 / interlaced=0 / bluray_compat=0 / constrained_intra=0 / bframes=3 / b_pyramid=2 / b_adapt=1 / b_bias=0 / direct=1 / weightb=1 / open_gop=0 / weightp=2 / keyint=250 / keyint_min=23 / scenecut=40 / intra_refresh=0 / rc_lookahead=40 / rc=2pass / mbtree=1 / bitrate=2688 / ratetol=1.0 / qcomp=0.60 / qpmin=0 / qpmax=69 / qpstep=4 / cplxblur=20.0 / qblur=0.5 / vbv_maxrate=50000 / vbv_bufsize=50000 / nal_hrd=none / ip_ratio=1.40 / aq=1:1.00
      Language : English
   Audio #2
      ID : 2
      Format : AC-3
      Format/Info : Audio Coding 3
      Codec ID : A_AC3
      Duration : 2h 4mn
      Bit rate mode : Constant
      Bit rate : 448 Kbps
      Channel(s) : 6 channels
      Channel positions : Front: L C R, Surround: L R, LFE
      Sampling rate : 48.0 KHz
      Stream size : 400 MiB (13%)
      Title : 英语
   Audio #3
      ID : 3
      Format : AC-3
      Format/Info : Audio Coding 3
      Codec ID : A_AC3
      Duration : 2h 4mn
      Bit rate mode : Constant
      Bit rate : 192 Kbps
      Channel(s) : 2 channels
      Channel positions : L R
      Sampling rate : 48.0 KHz
      Stream size : 171 MiB (6%)
      Title : 国语
   Text #4
      ID : 4
      Format : SSA
      Codec ID : S_TEXT/SSA
      Codec ID/Info : Sub Station Alpha
      Title : 中英
   Text #5
      ID : 5
      Format : SSA
      Codec ID : S_TEXT/SSA
      Codec ID/Info : Sub Station Alpha
      Title : 英中
   Text #6
      ID : 6
      Format : UTF-8
      Codec ID : S_TEXT/UTF8
      Codec ID/Info : UTF-8 Plain Text
      Title : 中文
   Text #7
      ID : 7
      Format : UTF-8
      Codec ID : S_TEXT/UTF8
      Codec ID/Info : UTF-8 Plain Text
      Title : 英文





◎片  名 Star Wars: Episode V - The Empire Strikes Back
◎中文 名 星球大战之帝国反击战
◎年  代 1980
◎国  家 美国
◎类  别 动作/冒险/科幻
◎语  言 英语/国语
◎字  幕 中英字幕/中文字幕/英中字幕/英文字幕
◎IMDB评分 8.8/10 (168,409 votes)
◎IMDB链接 http://www.imdb.com/title/tt0080684/
◎文件格式 X264 + AC3
◎视频尺寸 1280 x 720                     
◎文件大小 1CD
◎片  长 02:02:14
◎导  演 艾瑞恩·凯斯纳 Kershner, Irvin
◎主  演 哈里森·福特 Ford, Harrison
      马克·哈米尔 Hamill, Mark
      凯瑞·弗舍 Fisher, Carrie
      比利·地·威廉姆斯 Williams

◎简  介 

为了搜寻反叛者的踪迹,帝国向银河系各处派遣了数以千计的探测器,其中的一个落到了叛军的基地哈夫星。卢克在一次巡逻时出了意外。昏迷中,克诺比的灵魂出现,给了他前往狄克行星寻找吉迪武士老师友达的启示。在一场激战后,帝国军攻占了哈夫星。反叛者们逃离了基地。太空船长梭罗带着丽亚公主为逃避帝国的追击而躲进了小行星群。而卢克则和机器人R2飞往了狄克行星。梭罗和公主躲进了小行星中的一个洞穴修理飞船,帝国军穷追不舍。而此刻卢克也在狄克行星遇见了其貌不扬的友达师傅,开始向他学习成为杰迪武士的课程。梭罗和公主等人意外发现洞穴实际上是一头怪物的内腹。他们侥幸逃出,躲入了帝国的舰队之中,又乘着空隙前往云中之城寻找梭罗过去的朋友兰多。但帝国的密探和沙漠行星的赏金猎人也追踪而至。友达老师给了卢克许多教导。卢克预感到朋友有难,于是前往云中之城。而梭罗和公主一行也由于兰多的出卖落入了帝国手中。黑勋爵冰冻了梭罗,设下陷井准备诱捕卢克。
由于黑勋爵撕毁了协议,兰多投向了叛军。他救出了公主等人,却未能救下梭罗。兰多等人摆脱帝国军的追捕驾船离去。而此刻,卢克却陷入了与黑勋爵的苦斗之中。卢克被打败处于绝境。黑勋爵一心劝诱卢克投降,并告诉了卢克他就是卢克的父亲。卢克拒绝了父亲的劝降,跃下了深井。卢克被挂在云中之城下端的天线上,丽亚公主感受到卢克的讯息驾船返回,救下了卢克。经过一场激烈的追逐,卢克和公主等人终于摆脱了帝国的追击,回到了反叛同盟的船队。面对星空,他预感到一场严酷的斗争又将来临。

《星球大战》(帝国反击战)Ⅱ评析:
在影片《星球大战》成功后,卢卡斯倍受鼓舞,经过长期的策划,他又推出了《星球大战》的继集《帝国反击战》。影片推出后,再次获得了巨大的反响。影片的受欢迎程度比起前一集来可谓是有增无减。但与前一集相比,这一集在剧情的构画和主题上已有了明显的不同。在遭受挫折后,强大的帝国必然会发动反扑。这是故事的必然的发展进程,也是在小说原著中早已确定了的。在这一集中,特技场面的运用比起第一集来更为高明,这也是科技发展的必然趋势和结果,但却不是影片的主要内容所在。影片中也有着极为精彩的战斗场面,
但故事的着重点却是在于影片主人公卢克的修行与成长。比起前一集来,影片对“力”的探导可要深刻得多了。友达老师对卢克的教导无疑带有极浓的东方哲学意味。对西方人来说,这无疑是极具魅力的。东方,尤其是日本的搏击技巧在西方的广泛传播也随之带去了东方的哲学思想。观众不难看出,友达老师对卢克的训导与日本的武道锻炼观念有着极大的相似之处。这也是东方思想
对西方文明产生影响的一个鲜明佐证。影片比起前一集来更具气势,场面的精美也有过之而无不及。两个机器人和梭罗船长的猿人助手也仍然是片中的重要角色,他们的表现为影片增添了不少魅力。这部影片在意义和影响上或许不如前一集那样深厚,但在技法上却比前一集显得更为纯熟。对于在八十年代后期才看到《星球大战》第一集的我来说,影片的第二集无疑要更具吸引力。未能在70年代领略影片前一集所造成的巨大震撼力,实在是颇为遗憾的事。


      File size : 2.91 GiB
      Duration : 2h 7mn
      Overall bit rate : 3 267 Kbps
      Encoded date : UTC 2011-09-08 06:35:37
      Writing application : mkvmerge v3.4.0 ('Rapunzel') 编译于 May 15 2010 09:38:20
      Writing library : libebml v0.8.0 + libmatroska v0.9.0
   Video #1
      ID : 1
      Format : AVC
      Format/Info : Advanced Video Codec
      Format profile : High@L4.1
      Format settings, CABAC : Yes
      Format settings, ReFrames : 4 frames
      Muxing mode : Container profile=Unknown@4.1
      Codec ID : V_MPEG4/ISO/AVC
      Duration : 2h 7mn
      Bit rate : 2 562 Kbps
      Nominal bit rate : 2 624 Kbps
      Width : 1 280 pixels
      Height : 720 pixels
      Display aspect ratio : 16:9
      Frame rate : 23.976 fps
      Resolution : 8 bits
      Colorimetry : 4:2:0
      Scan type : Progressive
      Bits/(Pixel*Frame) : 0.116
      Stream size : 2.28 GiB (78%)
      Writing library : x264 core 115 r1995 c1e60b9
      Encoding settings : cabac=1 / ref=3 / deblock=1:0:0 / analyse=0x3:0x113 / me=hex / subme=7 / psy=1 / psy_rd=1.00:0.00 / mixed_ref=1 / me_range=16 / chroma_me=1 / trellis=1 / 8x8dct=1 / cqm=0 / deadzone=21,11 / fast_pskip=1 / chroma_qp_offset=-2 / threads=6 / sliced_threads=0 / nr=0 / decimate=1 / interlaced=0 / bluray_compat=0 / constrained_intra=0 / bframes=3 / b_pyramid=2 / b_adapt=1 / b_bias=0 / direct=1 / weightb=1 / open_gop=0 / weightp=2 / keyint=250 / keyint_min=23 / scenecut=40 / intra_refresh=0 / rc_lookahead=40 / rc=2pass / mbtree=1 / bitrate=2624 / ratetol=1.0 / qcomp=0.60 / qpmin=0 / qpmax=69 / qpstep=4 / cplxblur=20.0 / qblur=0.5 / vbv_maxrate=50000 / vbv_bufsize=50000 / nal_hrd=none / ip_ratio=1.40 / aq=1:1.00
      Language : English
   Audio #2
      ID : 2
      Format : AC-3
      Format/Info : Audio Coding 3
      Codec ID : A_AC3
      Duration : 2h 7mn
      Bit rate mode : Constant
      Bit rate : 448 Kbps
      Channel(s) : 6 channels
      Channel positions : Front: L C R, Surround: L R, LFE
      Sampling rate : 48.0 KHz
      Stream size : 408 MiB (14%)
      Title : 英语
   Audio #3
      ID : 3
      Format : AC-3
      Format/Info : Audio Coding 3
      Codec ID : A_AC3
      Duration : 2h 7mn
      Bit rate mode : Constant
      Bit rate : 192 Kbps
      Channel(s) : 2 channels
      Channel positions : L R
      Sampling rate : 48.0 KHz
      Stream size : 175 MiB (6%)
      Title : 国语
   Text #4
      ID : 4
      Format : SSA
      Codec ID : S_TEXT/SSA
      Codec ID/Info : Sub Station Alpha
      Title : 中英
   Text #5
      ID : 5
      Format : SSA
      Codec ID : S_TEXT/SSA
      Codec ID/Info : Sub Station Alpha
      Title : 英中
   Text #6
      ID : 6
      Format : UTF-8
      Codec ID : S_TEXT/UTF8
      Codec ID/Info : UTF-8 Plain Text
      Title : 中文
   Text #7
      ID : 7
      Format : UTF-8
      Codec ID : S_TEXT/UTF8
      Codec ID/Info : UTF-8 Plain Text
      Title : 英文







◎中文 名 星球大战6:绝地大反击/武士复仇/杰迪归来/绝地大反攻
◎片  名 Star Wars: Episode VI - Return of the Jedi
◎年  代 1983
◎国  家 美国
◎类  别 剧情/幻想/科幻/动作/冒险
◎语  言 英语/国语
◎字  幕 中英字幕/中文字幕/英中字幕/英文字幕
◎IMDB评分 8.2/10 (116,305 votes) top 250: #108
◎IMDB链接 http://www.imdb.com/title/tt0086190/
◎文件格式 X264 + AC3
◎视频尺寸 1280 X 720
◎文件大小 1CD
◎片  长 135 Mins
◎导  演 理查德·马昆德 Richard Marquand
◎主  演 亚历克·吉尼斯 Alec Guinness .... Obi-Wan Kenobi
      哈里森·福特 Harrison Ford .... Han Solo
      安东尼·丹尼尔 Anthony Daniels .... C-3PO
      卡里·费什尔 Carrie Fisher .... Princess Leia Organa
      马克·哈米尔 Mark Hamill .... Luke Skywalker
      詹姆斯·厄尔·琼斯 James Earl Jones .... Darth Vader (voice)
      弗兰克·奥兹 Frank Oz .... Yoda (voice)
      沃维克·戴维斯 Warwick Davis .... Wicket
      大卫·鲍罗斯 David Prowse .... Darth Vader
      伊恩·迈克蒂安米德 Ian McDiarmid .... The Emperor
      比利·迪·威廉斯 Billy Dee Williams .... Lando Calrissian
      John Altman .... Rebel Pilot (uncredited)
      

◎简  介 
黑武士和银河帝国再度建造威力更强大、更坚不可破的“死星”,邪恶的势力又再一次威胁莉亚公主所领导的反抗军。

影片一开始韩索洛舰长被贾霸捉走囚禁起来。莉亚公主、C-3PO、R2-D2等人先後前去援救,但都失败反而被贾霸捉住,最后在天行者路克的支援下,众人才成功逃出。之后路克前往大师约达的住所,即将离世的约达告诉他一个令人震惊的事实:黑武士维达正是他的父亲!尽管如此,路克仍重新加入反抗军的行列,并准备攻打帝国军新建的太空站。反抗军一行人来到提供能源给太空站的卫星,但住在卫星上的人Ewoks并不友善,直到Ewoks族人误将金光闪闪的C-3PO视为上帝後,双方才合作。但反抗军是否能一举歼灭银河帝国?路克又将如何面对父亲黑武士?而路克、韩索洛与莉亚公主之间的三角恋爱又该如何解决?

汉·所罗奇迹般的从帝国的二氧化碳框罩中复活。但是,汉、天行者和公主都落入了可怕的Jabba the Hut的手里。由于神秘人Landro Calrissian的帮助,男女主角才得以逃脱。下一步是要摧毁 Darth Vader 星系,它掌握着死亡星球的战船。通过自己的精神导师犹大,天行者发现公主是自己的孪生妹妹,那么她也有可能变成哲达战士,与邪恶的帝国作战……

回到达可巴星的卢克发现尤达大师的生命力逐渐消逝,离去前的尤达告诉卢克,黑武士维达的确是他的亲生父亲,莉亚则是他的妹妹,当他最终面对黑武士的挑战时,他才能真正成为绝地武士。

为破坏第二代死星,韩与莉亚公主前往恩多星球——死星防护罩的控制发射中心。寡不敌众的两人受到当地土著居民——可爱的依娃族人的帮助,成功将死星防护罩破坏。独闯虎穴的卢克无法抵御代表黑暗最高势力的帕丁皇帝的西斯闪电,奄奄一息陷入绝境。身处一旁的黑武士眼见儿子即将死去,终于觉醒,抱起帕丁扔进死星的核心,但自己的身体却受到闪电的致命破坏。临死前的黑武士脱去沉重的铠甲,向儿子真诚地忏悔,天行者阿纳金终于恢复了善良的本性,在卢克“父亲!父亲!”呼唤声中,他释然地微笑着死去。


      Format : Matroska
      File size : 2.92 GiB
      Duration : 2h 14mn
      Overall bit rate : 3 096 Kbps
      Encoded date : UTC 2011-09-08 07:24:03
      Writing application : mkvmerge v3.4.0 ('Rapunzel') 编译于 May 15 2010 09:38:20
      Writing library : libebml v0.8.0 + libmatroska v0.9.0
   Video #1
      ID : 1
      Format : AVC
      Format/Info : Advanced Video Codec
      Format profile : High@L4.1
      Format settings, CABAC : Yes
      Format settings, ReFrames : 4 frames
      Muxing mode : Container profile=Unknown@4.1
      Codec ID : V_MPEG4/ISO/AVC
      Duration : 2h 14mn
      Bit rate : 2 395 Kbps
      Nominal bit rate : 2 454 Kbps
      Width : 1 280 pixels
      Height : 720 pixels
      Display aspect ratio : 16:9
      Frame rate : 23.976 fps
      Resolution : 8 bits
      Colorimetry : 4:2:0
      Scan type : Progressive
      Bits/(Pixel*Frame) : 0.108
      Stream size : 2.25 GiB (77%)
      Writing library : x264 core 115 r1995 c1e60b9
      Encoding settings : cabac=1 / ref=3 / deblock=1:0:0 / analyse=0x3:0x113 / me=hex / subme=7 / psy=1 / psy_rd=1.00:0.00 / mixed_ref=1 / me_range=16 / chroma_me=1 / trellis=1 / 8x8dct=1 / cqm=0 / deadzone=21,11 / fast_pskip=1 / chroma_qp_offset=-2 / threads=6 / sliced_threads=0 / nr=0 / decimate=1 / interlaced=0 / bluray_compat=0 / constrained_intra=0 / bframes=3 / b_pyramid=2 / b_adapt=1 / b_bias=0 / direct=1 / weightb=1 / open_gop=0 / weightp=2 / keyint=250 / keyint_min=23 / scenecut=40 / intra_refresh=0 / rc_lookahead=40 / rc=2pass / mbtree=1 / bitrate=2454 / ratetol=1.0 / qcomp=0.60 / qpmin=0 / qpmax=69 / qpstep=4 / cplxblur=20.0 / qblur=0.5 / vbv_maxrate=50000 / vbv_bufsize=50000 / nal_hrd=none / ip_ratio=1.40 / aq=1:1.00
      Language : English
   Audio #2
      ID : 2
      Format : AC-3
      Format/Info : Audio Coding 3
      Codec ID : A_AC3
      Duration : 2h 14mn
      Bit rate mode : Constant
      Bit rate : 448 Kbps
      Channel(s) : 6 channels
      Channel positions : Front: L C R, Surround: L R, LFE
      Sampling rate : 48.0 KHz
      Stream size : 432 MiB (14%)
      Title : 英语
   Audio #3
      ID : 3
      Format : AC-3
      Format/Info : Audio Coding 3
      Codec ID : A_AC3
      Duration : 2h 14mn
      Bit rate mode : Constant
      Bit rate : 192 Kbps
      Channel(s) : 2 channels
      Channel positions : L R
      Sampling rate : 48.0 KHz
      Stream size : 185 MiB (6%)
      Title : 国语
   Text #4
      ID : 4
      Format : SSA
      Codec ID : S_TEXT/SSA
      Codec ID/Info : Sub Station Alpha
      Title : 中英
   Text #5
      ID : 5
      Format : SSA
      Codec ID : S_TEXT/SSA
      Codec ID/Info : Sub Station Alpha
      Title : 英中
   Text #6
      ID : 6
      Format : UTF-8
      Codec ID : S_TEXT/UTF8
      Codec ID/Info : UTF-8 Plain Text
      Title : 中文
   Text #7
      ID : 7
      Format : UTF-8
      Codec ID : S_TEXT/UTF8
      Codec ID/Info : UTF-8 Plain Text
      Title : 英文


星球大战六部全.720p.国英双语.torrent

99.29 KB, 下载次数: 61, 下载积分: 影币 -1

支持支持百度云论坛-百度网盘论坛-百度云资源-百度云下载-王者影视论坛

该用户从未签到

19

主题

743

帖子

821

积分

中级会员

Rank: 2

积分
821
影币
64
RMB
0
阅读权限
30
注册时间
2015-1-31
在线时间
5 小时
最后登录
2015-6-26
发表于 2015-2-14 05:00:40 | 显示全部楼层
谢谢楼主,共同发展

该用户从未签到

3

主题

699

帖子

812

积分

中级会员

Rank: 2

积分
812
影币
113
RMB
0
阅读权限
30
注册时间
2015-2-9
在线时间
1 小时
最后登录
2015-6-22
发表于 2015-2-14 08:17:58 | 显示全部楼层
ajowue

该用户从未签到

0

主题

744

帖子

740

积分

中级会员

Rank: 2

积分
740
影币
-4
RMB
0
阅读权限
30
注册时间
2015-2-6
在线时间
0 小时
最后登录
2015-6-28
发表于 2015-2-14 12:49:39 | 显示全部楼层
相当不错,感谢无私分享精神!

签到天数: 9 天

1436

主题

2242

帖子

5287

积分

超级会员

Rank: 6Rank: 6

积分
5287
影币
3017
RMB
0
阅读权限
90
注册时间
2015-1-1
在线时间
2 小时
最后登录
2015-6-25
发表于 2015-2-14 16:03:11 | 显示全部楼层
不知该说些什么。。。。。。就是谢谢

该用户从未签到

1

主题

746

帖子

830

积分

中级会员

Rank: 2

积分
830
影币
84
RMB
0
阅读权限
30
注册时间
2015-2-6
在线时间
0 小时
最后登录
2015-6-26
发表于 2015-2-14 18:07:29 | 显示全部楼层
有道理。。。

该用户从未签到

0

主题

699

帖子

699

积分

中级会员

Rank: 2

积分
699
影币
0
RMB
0
阅读权限
30
注册时间
2015-2-5
在线时间
0 小时
最后登录
2015-6-23
发表于 2015-2-14 18:43:13 | 显示全部楼层
楼主加油

该用户从未签到

1

主题

10

帖子

13

积分

初级会员

Rank: 1

积分
13
影币
3
RMB
0
阅读权限
20
注册时间
2015-3-25
在线时间
0 小时
最后登录
2015-3-25
发表于 2015-3-25 13:07:48 | 显示全部楼层
星球大战六部全
【严重提醒】:胡乱回复、恶意灌水是要被杀掉的!请注意您的言行举止!
您需要登录后才可以回帖 登录 | 立即注册

本版积分规则

Archiver|手机版|小黑屋|王者影视论坛

GMT+8, 2017-1-18 22:02 , Processed in 0.312230 second(s), 20 queries , Gzip On, Xcache On.

Powered by Discuz! X3.2 Licensed

© 2001-2013 Comsenz Inc.

快速回复 返回顶部 返回列表